新萤火虫论坛

 找回密码
 注册
查看: 594|回复: 0

[致胜女王][Queenpins.2021.2160p.WEB-DL.x265.10bit.HDR10Plus.DDP5.1-NGRP][11.58G]

[复制链接]
发表于 2021-10-1 15:03:01 | 显示全部楼层 |阅读模式
每个链接仅出售5个积分!积分很容易获得,每回复一个帖子就能得到1个积分了哦!大家快去水区发发帖哈!



导演: Aron Gaudet / Gita Pullapilly
编剧: Aron Gaudet / Gita Pullapilly
主演: 克里斯汀·贝尔 / 柯尔比·豪威尔-巴普蒂斯特 / 文斯·沃恩 / 保罗·沃尔特·豪泽 / 斯蒂芬·鲁特 / 乔尔·麦克哈尔 / 加勒特·沃灵 / 尼克·卡萨维蒂 / 安妮·玛莫罗 / 杰克·麦克布瑞尔 / 马克·埃文·杰克逊 / 保罗·鲁斯特 / 碧碧·雷克萨 / 爱德华多·弗兰科 / 莉迪亚·波尔图 / 戴奥·奥柯奈伊 / 詹姆斯·摩西·布莱克 / 迈克尔·马西尼 / Philip Adkins / 丹·萨霍夫 / 杰森·西姆斯-普鲁伊特 / 伦纳德·罗宾逊 / 迈克尔·罗素 / Albert Malafronte / 本·锡德尔
类型: 喜剧
制片国家/地区: 美国
语言: 英语
上映日期: 2021-09-10(美国)
又名: 爽翻姐妹(台)
IMDb: tt9054192

剧情简介 · · · · · ·
  本片根据史上最大的优惠券造假骗局改编,讲述一名住在郊区的家庭主妇(贝尔饰)受够了被丈夫和社会忽视的生活。于是她试图通过成立一个非法优惠券俱乐部来重新掌控自己的生活,并最终和她的剪券同伴一起从食品公司骗取了数百万美元。雷克萨将饰演一位名叫Tempe Tina的电脑黑客。

MediaInfo
Video
ID : 1
Format : HEVC
Format/Info : High Efficiency Video Coding
Format profile : Main 10@L5@High
HDR format : SMPTE ST 2094 App 4, Version 1, HDR10+ Profile B compatible
Codec ID : V_MPEGH/ISO/HEVC
Duration : 1 h 50 min
Bit rate : 14.4 Mb/s
Width : 3 840 pixels
Height : 2 160 pixels
Display aspect ratio : 16:9
Frame rate mode : Constant
Frame rate : 23.976 (24000/1001) FPS
Color space : YUV
Chroma subsampling : 4:2:0 (Type 2)
Bit depth : 10 bits
Bits/(Pixel*Frame) : 0.072
Stream size : 11.1 GiB (96%)
Language : English
Default : Yes
Forced : No
Color range : Full
Color primaries : BT.2020
Transfer characteristics : PQ
Matrix coefficients : BT.2020 non-constant
Mastering display color primaries : Display P3
Mastering display luminance : min: 0.0001 cd/m2, max: 1000 cd/m2

Audio
ID : 2
Format : E-AC-3
Format/Info : Enhanced AC-3
Commercial name : Dolby Digital Plus
Codec ID : A_EAC3
Duration : 1 h 50 min
Bit rate mode : Constant
Bit rate : 640 kb/s
Channel(s) : 6 channels
Channel layout : L R C LFE Ls Rs
Sampling rate : 48.0 kHz
Frame rate : 31.250 FPS (1536 SPF)
Compression mode : Lossy
Stream size : 505 MiB (4%)
Language : English
Service kind : Complete Main
Default : Yes
Forced : No

Text
ID : 3
Format : UTF-8
Codec ID : S_TEXT/UTF8
Codec ID/Info : UTF-8 Plain Text
Duration : 1 h 45 min
Bit rate : 101 b/s
Count of elements : 2033
Stream size : 78.3 KiB (0%)
Language : English
Default : Yes
Forced : No


购买主题 本主题需向作者支付 5 积分 才能浏览
您需要登录后才可以回帖 登录 | 注册

本版积分规则

小黑屋|Archiver|手机版|萤火虫

GMT++8, 2022-8-12 04:52 , Processed in 0.231251 second(s), 7 queries , File On.

Powered by Discuz! X3.4

Copyright © 2001-2021, Tencent Cloud.

快速回复 返回顶部 返回列表