新萤火虫论坛

 找回密码
 注册
查看: 617|回复: 0

乐高星球大战:恐怖故事.LEGO.Star.Wars.Terrifying.Tales.2021.HDR.2160p.WEB.h265-KO

[复制链接]
发表于 2021-10-3 16:19:26 | 显示全部楼层 |阅读模式
每个链接仅出售5个积分!积分很容易获得,每回复一个帖子就能得到1个积分了哦!大家快去水区发发帖哈!



导演: Ken Cunningham
编剧: David Shayne
主演: 杰克·格林 / 拉斐尔·亚历杭德罗 / 特雷弗·德瓦 / 托尼·海尔 / 玛丽·伊丽莎白·麦格林 / 克里斯蒂安·史莱特 / 马特·斯隆 / 达纳·斯耐德
类型: 喜剧 / 动作 / 科幻 / 动画 / 奇幻 / 冒险
制片国家/地区: 美国
语言: 英语
上映日期: 2021-10-01(美国)
片长: 44分钟
又名: 恐怖星球大战
IMDb: tt15164924

MediaInfo
Video
ID : 1
Format : HEVC
Format/Info : High Efficiency Video Coding
Format profile : Main 10@L5@High
HDR format : SMPTE ST 2086, HDR10 compatible
Codec ID : V_MPEGH/ISO/HEVC
Duration : 44 min 43 s
Bit rate : 16.4 Mb/s
Width : 3 840 pixels
Height : 2 160 pixels
Display aspect ratio : 16:9
Frame rate mode : Constant
Frame rate : 24.000 FPS
Color space : YUV
Chroma subsampling : 4:2:0
Bit depth : 10 bits
Bits/(Pixel*Frame) : 0.082
Stream size : 5.13 GiB (98%)
Language : English
Default : Yes
Forced : No
Color range : Limited
Color primaries : BT.2020
Transfer characteristics : PQ
Matrix coefficients : BT.2020 non-constant
Mastering display color primaries : BT.2020
Mastering display luminance : min: 0.0000 cd/m2, max: 1000 cd/m2

Audio
ID : 2
Format : E-AC-3
Format/Info : Enhanced AC-3
Commercial name : Dolby Digital Plus
Codec ID : A_EAC3
Duration : 44 min 43 s
Bit rate mode : Constant
Bit rate : 256 kb/s
Channel(s) : 6 channels
Channel layout : L R C LFE Ls Rs
Sampling rate : 48.0 kHz
Frame rate : 31.250 FPS (1536 SPF)
Compression mode : Lossy
Stream size : 81.9 MiB (2%)
Language : English
Service kind : Complete Main
Default : Yes
Forced : No

Text #1
ID : 3
Format : UTF-8
Codec ID : S_TEXT/UTF8
Codec ID/Info : UTF-8 Plain Text
Duration : 44 min 7 s
Bit rate : 80 b/s
Count of elements : 811
Stream size : 26.0 KiB (0%)
Title : English (SDH)
Language : English
Default : No
Forced : No

Text #2
ID : 4
Format : UTF-8
Codec ID : S_TEXT/UTF8
Codec ID/Info : UTF-8 Plain Text
Duration : 44 min 13 s
Bit rate : 62 b/s
Count of elements : 495
Stream size : 20.3 KiB (0%)
Title : Dansk
Language : Danish
Default : No
Forced : No

Text #3
ID : 5
Format : UTF-8
Codec ID : S_TEXT/UTF8
Codec ID/Info : UTF-8 Plain Text
Duration : 44 min 13 s
Bit rate : 65 b/s
Count of elements : 600
Stream size : 21.2 KiB (0%)
Title : Deutsch
Language : German
Default : No
Forced : No

Text #4
ID : 6
Format : UTF-8
Codec ID : S_TEXT/UTF8
Codec ID/Info : UTF-8 Plain Text
Duration : 44 min 13 s
Bit rate : 67 b/s
Count of elements : 598
Stream size : 21.9 KiB (0%)
Title : Español
Language : Spanish
Default : No
Forced : No

Text #5
ID : 7
Format : UTF-8
Codec ID : S_TEXT/UTF8
Codec ID/Info : UTF-8 Plain Text
Duration : 44 min 13 s
Bit rate : 65 b/s
Count of elements : 600
Stream size : 21.3 KiB (0%)
Title : Español (Latinoamericano)
Language : Spanish
Default : No
Forced : No

Text #6
ID : 8
Format : UTF-8
Codec ID : S_TEXT/UTF8
Codec ID/Info : UTF-8 Plain Text
Duration : 44 min 13 s
Bit rate : 62 b/s
Count of elements : 599
Stream size : 20.1 KiB (0%)
Title : Suomi
Language : Finnish
Default : No
Forced : No

Text #7
ID : 9
Format : UTF-8
Codec ID : S_TEXT/UTF8
Codec ID/Info : UTF-8 Plain Text
Duration : 44 min 13 s
Bit rate : 68 b/s
Count of elements : 652
Stream size : 22.1 KiB (0%)
Title : Français
Language : French
Default : No
Forced : No

Text #8
ID : 10
Format : UTF-8
Codec ID : S_TEXT/UTF8
Codec ID/Info : UTF-8 Plain Text
Duration : 44 min 13 s
Bit rate : 64 b/s
Count of elements : 600
Stream size : 20.8 KiB (0%)
Title : Italiano
Language : Italian
Default : No
Forced : No

Text #9
ID : 11
Format : UTF-8
Codec ID : S_TEXT/UTF8
Codec ID/Info : UTF-8 Plain Text
Duration : 44 min 13 s
Bit rate : 66 b/s
Count of elements : 631
Stream size : 21.6 KiB (0%)
Title : Japanese
Language : Japanese
Default : No
Forced : No

Text #10
ID : 12
Format : UTF-8
Codec ID : S_TEXT/UTF8
Codec ID/Info : UTF-8 Plain Text
Duration : 44 min 13 s
Bit rate : 63 b/s
Count of elements : 600
Stream size : 20.5 KiB (0%)
Title : Korean
Language : Korean
Default : No
Forced : No

Text #11
ID : 13
Format : UTF-8
Codec ID : S_TEXT/UTF8
Codec ID/Info : UTF-8 Plain Text
Duration : 44 min 13 s
Bit rate : 56 b/s
Count of elements : 533
Stream size : 18.4 KiB (0%)
Title : Nederlands
Language : Dutch
Default : No
Forced : No

Text #12
ID : 14
Format : UTF-8
Codec ID : S_TEXT/UTF8
Codec ID/Info : UTF-8 Plain Text
Duration : 44 min 13 s
Bit rate : 61 b/s
Count of elements : 599
Stream size : 20.0 KiB (0%)
Title : Norsk
Language : Norwegian
Default : No
Forced : No

Text #13
ID : 15
Format : UTF-8
Codec ID : S_TEXT/UTF8
Codec ID/Info : UTF-8 Plain Text
Duration : 44 min 13 s
Bit rate : 59 b/s
Count of elements : 600
Stream size : 19.4 KiB (0%)
Title : Polski
Language : Polish
Default : No
Forced : No

Text #14
ID : 16
Format : UTF-8
Codec ID : S_TEXT/UTF8
Codec ID/Info : UTF-8 Plain Text
Duration : 44 min 13 s
Bit rate : 63 b/s
Count of elements : 598
Stream size : 20.5 KiB (0%)
Title : Português
Language : Portuguese
Default : No
Forced : No

Text #15
ID : 17
Format : UTF-8
Codec ID : S_TEXT/UTF8
Codec ID/Info : UTF-8 Plain Text
Duration : 44 min 13 s
Bit rate : 62 b/s
Count of elements : 600
Stream size : 20.4 KiB (0%)
Title : Português (Brasil)
Language : Portuguese
Default : No
Forced : No

Text #16
ID : 18
Format : UTF-8
Codec ID : S_TEXT/UTF8
Codec ID/Info : UTF-8 Plain Text
Duration : 44 min 13 s
Bit rate : 55 b/s
Count of elements : 599
Stream size : 17.9 KiB (0%)
Title : Svenska
Language : Swedish
Default : No
Forced : No

Text #17
ID : 19
Format : UTF-8
Codec ID : S_TEXT/UTF8
Codec ID/Info : UTF-8 Plain Text
Duration : 44 min 13 s
Bit rate : 53 b/s
Count of elements : 600
Stream size : 17.5 KiB (0%)
Title : Chinese (Simplified)
Language : Chinese
Default : No
Forced : No

Text #18
ID : 20
Format : UTF-8
Codec ID : S_TEXT/UTF8
Codec ID/Info : UTF-8 Plain Text
Duration : 44 min 13 s
Bit rate : 54 b/s
Count of elements : 600
Stream size : 17.6 KiB (0%)
Title : Chinese (Hong Kong)
Language : Chinese
Default : No
Forced : No


购买主题 本主题需向作者支付 5 积分 才能浏览
您需要登录后才可以回帖 登录 | 注册

本版积分规则

小黑屋|Archiver|手机版|萤火虫

GMT++8, 2022-8-12 05:11 , Processed in 0.238740 second(s), 7 queries , File On.

Powered by Discuz! X3.4

Copyright © 2001-2021, Tencent Cloud.

快速回复 返回顶部 返回列表