新萤火虫论坛

 找回密码
 注册
查看: 747|回复: 0

[Magnet][爱情来了.Love.Go.Go.1997.CHINESE.1080p.BluRay.x264.DTS-FGT][10.37G]

[复制链接]
发表于 2021-10-3 17:07:13 | 显示全部楼层 |阅读模式
每个链接仅出售5个积分!积分很容易获得,每回复一个帖子就能得到1个积分了哦!大家快去水区发发帖哈!



导演: 陈玉勋
编剧: 陈玉勋
主演: 坣娜 / 施易男 / 黄子佼 / 杨洁玫 / 陈进兴 / 廖慧珍 / 马念先
类型: 喜剧
制片国家/地区: 中国台湾
语言: 汉语普通话
上映日期: 1998-09-16(中国台湾)
片长: 112分钟
又名: Love Go Go
IMDb: tt0168973

剧情简介 · · · · · ·
  电影分为三个短片。
  阿盛在面包房工作,业余爱好是唱歌。某日,阿盛的小学同学丽华突然来到了店里买面包,然而丽华却并没有认出阿盛。阿盛爱上了丽华,却没有勇气向她表白心迹,于是他决定参加一场歌唱比赛,以彰显自己的真心。
  某日,女孩捡到了一支手机,她联系上了失主,没想到两人却聊得特别投机。终于,在失主的要求下女孩决定同他见面,那隐藏在手机背后的,究竟会是一个怎样的人呢?
  阿松是一名推销员,感情生活一片空白,事业亦死气沉沉没有希望。某日,他来到丽华的理发店,却目睹了一场捉奸的闹剧,丽华因为误会被卷入其中。阿松出手相救,两人逃到了天台之上。

MediaInfo
Video
ID : 1
Format : AVC
Format/Info : Advanced Video Codec
Format profile : High@L4.1
Format settings : CABAC / 4 Ref Frames
Format settings, CABAC : Yes
Format settings, Reference frames : 4 frames
Codec ID : V_MPEG4/ISO/AVC
Duration : 1 h 54 min
Bit rate : 11.5 Mb/s
Width : 1 920 pixels
Height : 1 036 pixels
Display aspect ratio : 1.85:1
Frame rate mode : Constant
Frame rate : 23.976 (24000/1001) FPS
Color space : YUV
Chroma subsampling : 4:2:0
Bit depth : 8 bits
Scan type : Progressive
Bits/(Pixel*Frame) : 0.241
Stream size : 9.16 GiB (88%)
Writing library : x264 core 148 r2795M aaa9aa8
Encoding settings : cabac=1 / ref=4 / deblock=1:-2:-2 / analyse=0x3:0x113 / me=umh / subme=9 / psy=1 / psy_rd=1.00:0.15 / mixed_ref=1 / me_range=16 / chroma_me=1 / trellis=2 / 8x8dct=1 / cqm=0 / deadzone=21,11 / fast_pskip=1 / chroma_qp_offset=-3 / threads=24 / lookahead_threads=3 / sliced_threads=0 / nr=0 / decimate=1 / interlaced=0 / bluray_compat=0 / constrained_intra=0 / bframes=3 / b_pyramid=2 / b_adapt=1 / b_bias=0 / direct=3 / weightb=1 / open_gop=0 / weightp=2 / keyint=250 / keyint_min=25 / scenecut=40 / intra_refresh=0 / rc_lookahead=50 / rc=2pass / mbtree=1 / bitrate=11500 / ratetol=1.0 / qcomp=0.60 / qpmin=0 / qpmax=69 / qpstep=4 / cplxblur=20.0 / qblur=0.5 / vbv_maxrate=31250 / vbv_bufsize=31250 / nal_hrd=none / filler=0 / ip_ratio=1.40 / aq=1:1.00
Language : Japanese
Default : Yes
Forced : No

Audio
ID : 2
Format : DTS
Format/Info : Digital Theater Systems
Codec ID : A_DTS
Duration : 1 h 54 min
Bit rate mode : Constant
Bit rate : 1 509 kb/s
Channel(s) : 2 channels
Channel layout : L R
Sampling rate : 48.0 kHz
Frame rate : 93.750 FPS (512 SPF)
Bit depth : 16 bits
Compression mode : Lossy
Stream size : 1.20 GiB (12%)
Language : Japanese
Default : Yes
Forced : No

Text
ID : 3
Format : UTF-8
Codec ID : S_TEXT/UTF8
Codec ID/Info : UTF-8 Plain Text
Duration : 1 h 48 min
Bit rate : 29 b/s
Count of elements : 1000
Stream size : 23.4 KiB (0%)
Language : English
Default : No
Forced : No

Menu
00:00:00.000 : Chapter 01
00:01:19.704 : Chapter 02
00:39:07.636 : Chapter 03
01:15:12.132 : Chapter 04
01:41:50.729 : Chapter 05


购买主题 本主题需向作者支付 5 积分 才能浏览
您需要登录后才可以回帖 登录 | 注册

本版积分规则

小黑屋|Archiver|手机版|萤火虫

GMT++8, 2022-8-12 04:17 , Processed in 0.363004 second(s), 7 queries , File On.

Powered by Discuz! X3.4

Copyright © 2001-2021, Tencent Cloud.

快速回复 返回顶部 返回列表